Downloaden APK | Our School Of Life | Como Eu Conheci Sua Mãe92. Childish Gambino This Is America mp3 | Audrey Esparza | Bolt - Ein Hund für alle Fälle
 


 

Filecrypt zeigt vereinzelt Files als "n/a". Die Downloads sind trotzdem komplett.

DNS SERVER AENDERNum der staatlichen Zensur zu umgehen. Sollten wir von eurem Provider geseprrt werden, nutzt den TOR BROWSER oder ändert euren DNS SERVER.

Filmwünsche können bei uns im Forum abgegeben werden

Wir Speichern Nicht




 
 
 
Top Releases
Outlaw.King.2018.German.DL.7...
Ploetzlich.Papa.2016.German....
Gun.City.2018.German.AC3.108...
Ant.Man.and.the.Wasp.2018.Ge...
Ant.Man.and.the.Wasp.2018.Ge...
Ant.Man.and.the.Wasp.2018.Ge...
Star.Wars.Episode.VIII.Die.l...
Skyscraper.2018.German.720p....
Skyscraper.2018.German.DL.10...
Zoe.2018.German.DL.1080p.Blu...

Cinedubs
10×10.2018.German.AC3D.DL.1...
10×10.2018.German.AC3D.DL.7...
Sicario.2.German.DL.AC3.Dubb...
Sicario.2.German.DL.AC3.Dubb...
Hotel.Artemis.German.DL.AC3....
Hotel.Artemis.German.DL.AC3....
Mission.Impossible.Fallout.2...
Mission.Impossible.Fallout.2...
BlacKkKlansman.2018.German.A...
BlacKkKlansman.2018.German.A...

Neuerscheinungen 2017-18
Dead.Men.2018.COMPLETE.BLURA...
Flying.Revolution.2017.GERMA...
Dead.Men.Das.Gold.der.Apache...
Dead.Men.Das.Gold.der.Apache...
The.Boys.from.Brazil.1978.Ge...
Over.the.Top.1987.German.DL....
Over.the.Top.1987.German.DTS...
Over.the.Top.1987.German.DTS...
Flying.Revolution.2017.GERMA...
Dead.Men.Das.Gold.der.Apache...

XXX
BustyArianna.18.07.05.Ariann...
BangBros18.18.10.30.Sophia.L...
Bang.RealTeens.18.10.29.Vina...
Babes.18.10.31.Ivy.Wolfe.Unm...
The.Game.XXX.1080p.WEBRip.MP...
TheLifeErotic.18.10.30.Lucy....
TonightsGirlfriend.18.10.31....
ATKGirlfriends.18.10.28.Khlo...
TwistysHard.18.10.31.Kimmy.G...
BustyArianna.18.07.23.Ariann...
BustyArianna.18.07.14.The.Ot...
The.Game.XXX.720p.WEBRip.MP4...
BustyArianna.18.07.29.Ariann...
ATKHairy.18.10.31.Andy.Moon....
AmateurCFNM.18.10.30.Ashley....
TheLifeErotic.18.10.28.Raisa...
Bang.ScrewTheCops.18.10.31.L...
DesperateAmateurs.18.10.28.S...
BangBrosClips.18.10.30.Aubre...
Bang.RealMILFs.18.10.30.Shee...

3D
Die.Unglaublichen.2.3D.2018....
Die.Unglaublichen.2.2018.3D....
Die.Unglaublichen.2.2018.3D....
Sharknado.6.The.Last.One.3D....
Deep.Kleine.Helden.der.Tiefs...
Deep.3D.2017.MULTI.COMPLETE....
Detective.Dee.und.die.Legend...
Detective.Dee.und.die.Legend...
Skyscraper.3D.German.DL.AC3....
Ant-Man.and.the.Wasp.2018.3D...
Jurassic.World.Das.gefallene...
Jurassic.World.Das.gefallene...
Best.of.3D.vol.10.-.12.GERMA...
Die.Biene.Maja.2.Die.Honigsp...
Sharknado.6.The.Last.One.3D....

Old_Stuff
Detective.Dee.und.das.Geheim...
Detective.Dee.Und.Der.Fluch....
Ghost.Rider.Spirit.of.Vengea...
Species.IV.Das.Erwachen.2007...
Species.IV.Das.Erwachen.2007...
Hotel.Transsilvanien.2012.Ge...
The.Dead.2010.German.DL.1080...
The.Dead.2.India.2013.German...
Britney.Spears.Live.The.Femm...
Buffy.The.Vampire.Slayer.199...
IMAX.Ride.Around.The.World.2...
Schimanski.-.Duisburg.Ruhror...
Akte.X.S02.German.DTS.DL.108...
How.I.Met.Your.Mother.S02.Ge...
Akte.X.S01.German.DTS.DL.108...

Filme
The.Tortured.Das.Gesetz.der....
The.Transporter.2002.German....
The.Oath.S01D01-2.DUAL.COMPL...
Logan.The.Wolverine.2017.NOI...
Logan.The.Wolverine.2017.NOI...
Herrliche.Zeiten.German.DTS....
The.Thing.Below.2004.German....
The.Thompsons.Uncut.2012.Ger...
The.Tigers.Tail.2006.German....
The.Timber.2015.German.DL.10...
The.Gifted.S02.GERMAN.DL.108...
The.Gifted.S02.GERMAN.DL.720...
Krypton.S01.GERMAN.DUBBED.72...
The.Deuce.S02.GERMAN.DL.720p...
Criminal.Minds.S13.GERMAN.DU...
4.Blocks.S02.GERMAN.1080p.HD...
4.Blocks.S02.GERMAN.720p.HDT...
Flying.Revolution.2017.GERMA...
Resident.Evil.2.2004.Uncut.G...
Star.Wars.Episode.III.Die.Ra...
Ab.in.die.Ewigkeit.1981.Germ...
The.Boys.from.Brazil.1978.Ge...
Over.the.Top.1987.German.DTS...
Joshua.Der.Erstgeborene.2007...

 
 
Ploetzlich.Papa.2016.German.AC3.DL.1080p.BluRay.x265-FuN

Jahr: 2016
Genre: Komödie | Drama
Sprache: Deutsch AC3 | Englisch AC3
Laufzeit: 1h 57mn
Bitrate: 2 601 Kbps
Format: MKV
Größe: 2.14 GiB
Release:

Beschreibung:

In Südfrankreich genießt Samuel (O. Sy) sein Single-Leben frei von Verpflichtungen. Als seine Verflossene Kristin (C. Poésy) eines Tages auftaucht, wird dieses süße Leben jedoch auf den Kopf gestellt. Sie präsentiert ihm seine bisher unbekannte Tochter Gloria und ist dann auch schon wieder weg - ohne das Baby. Vor lauter Panik reist Samuel ihr nach London hinterher, doch bleibt bei seiner Suche erfolglos. Acht Jahre später führt Samuel ein geregeltes Leben als Stuntman und Vater und Tochter (G. Colston) sind längst ein Herz und eine Seele. Doch dann taucht Kristin wieder auf und fordert Gloria zurück...




Format                                   : Matroska
Format version                           : Version 4 / Version 2
File size                                : 2.14 GiB
Duration                                 : 1h 57mn
Overall bit rate                         : 2 601 Kbps
Movie name                               : Ploetzlich.Papa.2016.German.DL.1080p.BluRay.AVC-AVC4D
Encoded date                             : UTC 2018-10-29 14:26:49
Writing application                      : mkvmerge v20.0.0 ('I Am The Sun') 64-bit
Writing library                          : libebml v1.3.5 + libmatroska v1.4.8
DURATION                                 : 01:56:32.933000000
NUMBER_OF_FRAMES                         : 1846
NUMBER_OF_BYTES                          : 8234772
_STATISTICS_WRITING_APP                  : mkvmerge v20.0.0 ('I Am The Sun') 64-bit
_STATISTICS_WRITING_DATE_UTC             : 2018-10-29 14:26:49
_STATISTICS_TAGS                         : BPS DURATION NUMBER_OF_FRAMES NUMBER_OF_BYTES

Video
ID                                       : 1
Format                                   : HEVC
Format/Info                              : High Efficiency Video Coding
Format profile                           : Main@L4.0
Codec ID                                 : V_MPEGH/ISO/HEVC
Duration                                 : 1h 57mn
Bit rate                                 : 1 781 Kbps
Width                                    : 1 920 pixels
Height                                   : 800 pixels
Display aspect ratio                     : 2.40:1
Frame rate mode                          : Constant
Frame rate                               : 23.976 fps
Color space                              : YUV
Chroma subsampling                       : 4:2:0
Bit depth                                : 8 bits
Bits/(Pixel*Frame)                       : 0.048
Stream size                              : 1.47 GiB (68%)
Writing library                          : x265 2.6:[Windows][GCC 7.3.0][64 bit] 8bit+10bit+12bit
Encoding settings                        : cpuid=1173503 / frame-threads=3 / numa-pools=8 / wpp / no-pmode / no-pme / no-psnr / no-ssim / log-level=2 / input-csp=1 / input-res=1920x800 / interlace=0 / total-frames=0 / level-idc=0 / high-tier=1 / uhd-bd=0 / ref=3 / no-allow-non-conformance / no-repeat-headers / annexb / no-aud / no-hrd / info / hash=0 / no-temporal-layers / open-gop / min-keyint=24 / keyint=240 / bframes=4 / b-adapt=0 / b-pyramid / bframe-bias=0 / rc-lookahead=15 / lookahead-slices=5 / scenecut=40 / no-intra-refresh / ctu=64 / min-cu-size=8 / no-rect / no-amp / max-tu-size=32 / tu-inter-depth=1 / tu-intra-depth=1 / limit-tu=0 / rdoq-level=0 / dynamic-rd=0.00 / no-ssim-rd / signhide / no-tskip / nr-intra=0 / nr-inter=0 / no-constrained-intra / no-strong-intra-smoothing / max-merge=2 / limit-refs=3 / no-limit-modes / me=1 / subme=2 / merange=57 / temporal-mvp / weightp / no-weightb / no-analyze-src-pics / deblock=0:0 / no-sao / no-sao-non-deblock / rd=2 / no-early-skip / rskip / fast-intra / no-tskip-fast / no-cu-lossless / no-b-intra / no-splitrd-skip / rdpenalty=0 / psy-rd=2.00 / psy-rdoq=0.00 / no-rd-refine / analysis-reuse-mode=0 / no-lossless / cbqpoffs=0 / crqpoffs=0 / rc=crf / crf=21.0 / qcomp=0.60 / qpstep=4 / stats-write=0 / stats-read=0 / ipratio=1.40 / pbratio=1.30 / aq-mode=1 / aq-strength=1.00 / cutree / zone-count=0 / no-strict-cbr / qg-size=32 / no-rc-grain / qpmax=69 / qpmin=0 / no-const-vbv / sar=1 / overscan=0 / videoformat=5 / range=0 / colorprim=1 / transfer=1 / colormatrix=1 / chromaloc=0 / display-window=0 / max-cll=0,0 / min-luma=0 / max-luma=255 / log2-max-poc-lsb=8 / vui-timing-info / vui-hrd-info / slices=1 / no-opt-qp-pps / no-opt-ref-list-length-pps / no-multi-pass-opt-rps / scenecut-bias=0.05 / no-opt-cu-delta-qp / no-aq-motion / no-hdr / no-hdr-opt / no-dhdr10-opt / analysis-reuse-level=5 / scale-factor=0 / refine-intra=0 / refine-inter=0 / refine-mv=0 / no-limit-sao / ctu-info=0 / no-lowpass-dct / refine-mv-type=0 / copy-pic=1
Default                                  : Yes
Forced                                   : No
DURATION                                 : 01:57:57.237000000
NUMBER_OF_FRAMES                         : 169684
NUMBER_OF_BYTES                          : 1613594841
_STATISTICS_WRITING_APP                  : mkvmerge v20.0.0 ('I Am The Sun') 64-bit
_STATISTICS_WRITING_DATE_UTC             : 2018-10-29 14:26:49
_STATISTICS_TAGS                         : BPS DURATION NUMBER_OF_FRAMES NUMBER_OF_BYTES

Audio #1
ID                                       : 2
Format                                   : AC-3
Format/Info                              : Audio Coding 3
Mode extension                           : CM (complete main)
Format settings, Endianness              : Big
Codec ID                                 : A_AC3
Duration                                 : 1h 57mn
Bit rate mode                            : Constant
Bit rate                                 : 384 Kbps
Channel(s)                               : 6 channels
Channel positions                        : Front: L C R, Side: L R, LFE
Sampling rate                            : 48.0 KHz
Bit depth                                : 16 bits
Compression mode                         : Lossy
Stream size                              : 324 MiB (15%)
Title                                    : Surround
Language                                 : German
Default                                  : Yes
Forced                                   : No
DURATION                                 : 01:57:57.216000000
NUMBER_OF_FRAMES                         : 221163
NUMBER_OF_BYTES                          : 339706368
_STATISTICS_WRITING_APP                  : mkvmerge v20.0.0 ('I Am The Sun') 64-bit
_STATISTICS_WRITING_DATE_UTC             : 2018-10-29 14:26:49
_STATISTICS_TAGS                         : BPS DURATION NUMBER_OF_FRAMES NUMBER_OF_BYTES

Audio #2
ID                                       : 3
Format                                   : AC-3
Format/Info                              : Audio Coding 3
Mode extension                           : CM (complete main)
Format settings, Endianness              : Big
Codec ID                                 : A_AC3
Duration                                 : 1h 57mn
Bit rate mode                            : Constant
Bit rate                                 : 384 Kbps
Channel(s)                               : 6 channels
Channel positions                        : Front: L C R, Side: L R, LFE
Sampling rate                            : 48.0 KHz
Bit depth                                : 16 bits
Compression mode                         : Lossy
Stream size                              : 324 MiB (15%)
Title                                    : Surround
Language                                 : French
Default                                  : No
Forced                                   : No
DURATION                                 : 01:57:57.216000000
NUMBER_OF_FRAMES                         : 221163
NUMBER_OF_BYTES                          : 339706368
_STATISTICS_WRITING_APP                  : mkvmerge v20.0.0 ('I Am The Sun') 64-bit
_STATISTICS_WRITING_DATE_UTC             : 2018-10-29 14:26:49
_STATISTICS_TAGS                         : BPS DURATION NUMBER_OF_FRAMES NUMBER_OF_BYTES



Download:
Share Online Share OnlineShare OnlineShare Online
 

Kommentare