Filecrypt zeigt vereinzelt Files als "n/a". Die Downloads sind trotzdem komplett.

DNS SERVER AENDERNum der staatlichen Zensur zu umgehen. Sollten wir von eurem Provider geseprrt werden, nutzt den TOR BROWSER oder ändert euren DNS SERVER.

Filmwünsche können bei uns im Forum abgegeben werden

Wir Speichern Nicht




 
 
 
Top Releases
Passengers.2016.German.AC3.D...
Wolfsnaechte.2018.German.AC3...
Brawl.in.Cell.Block.99.2017....
Gravity.Diamond.Luxe.Edition...
Middle.School.The.Worst.Year...
Brawl.in.Cell.Block.99.2017....
Mindhorn.2016.German.AC3.DL....
Die.letzte.Party.deines.Lebe...
Sand.Castle.2017.German.AC3....
Skyscraper.2018.German.DL.AC...

Cinedubs
Bad.Spies.2018.German.AC3MD....
Bad.Spies.2018.German.AC3MD....
MEG.Biss.bald.2018.German.AC...
Slender.Man.2018.GERMAN.DL.A...
Slender.Man.2018.GERMAN.DL.A...
MEG.Biss.bald.2018.German.AC...
MEG.Biss.bald.2018.German.AC...
Searching.2018.German.AC3MD....
Searching.2018.German.AC3MD....
211.Cops.Under.Fire.2018.Ger...

Neuerscheinungen 2017-18
Am.Anfang.war.das.Feuer.La.g...
Uncle.Drew.2018.German.AC3.D...
Uncle.Drew.2018.German.AC3.D...
Wildes.Herz.2017.MULTi.COMPL...
Die.Biene.Maja.2.Die.Honigsp...
Die.Biene.Maja.2.Die.Honigsp...
Wildes.Herz.2017.German.1080...
Wildes.Herz.2017.German.1080...
Wildes.Herz.2017.German.720p...
Der.Schwimmer.1968.German.AC...

XXX
Private.18.10.05.Francesca.D...
HotAndMean.18.10.02.Abella.D...
RoccoSiffredi.18.10.05.Lilu....
POVBitch.18.10.03.Kizzy.Sixx...
Housewife1On1.18.10.05.Jade....
MistressT.18.05.17.Video.Cha...
VIPArea.18.10.01.Prinzzess.P...
JapanHDV.18.10.02.Yuna.Hoshi...
Swallowed.18.09.30.Gia.Derza...
MistressT.18.03.14.Cum.On.Yo...
CherryPimps.18.10.03.Summer....
MistressT.18.03.03.MILF.Show...
MistressT.18.04.13.Sniff.Str...
Private.Specials.230.Russian...
PlayboyPlus.18.10.01.Olivia....
GloryHoleSecrets.18.10.05.Li...
Tushy.18.10.03.Eveline.Della...
DoctorAdventures.18.10.05.As...
PlumperPass.18.10.05.Harmony...
JeshByJesh.18.10.04.Gina.Val...

3D
Detective.Dee.und.die.Legend...
Detective.Dee.und.die.Legend...
Skyscraper.3D.German.DL.AC3....
Ant-Man.and.the.Wasp.2018.3D...
Jurassic.World.Das.gefallene...
Jurassic.World.Das.gefallene...
Best.of.3D.vol.10.-.12.GERMA...
Die.Biene.Maja.2.Die.Honigsp...
Sharknado.6.The.Last.One.3D....
Solo.A.Star.Wars.Story.3D.20...
Solo.A.Star.Wars.Story.3D.20...
Die.Biene.Maja.2.Die.Honigsp...
Avengers.Infinity.War.3D.201...
Avengers.Infinity.War.3D.201...
Rampage.Big.Meets.Bigger.3D....

Old_Stuff
Species.IV.Das.Erwachen.2007...
Species.IV.Das.Erwachen.2007...
Hotel.Transsilvanien.2012.Ge...
The.Dead.2010.German.DL.1080...
The.Dead.2.India.2013.German...
Britney.Spears.Live.The.Femm...
Buffy.The.Vampire.Slayer.199...
IMAX.Ride.Around.The.World.2...
Schimanski.-.Duisburg.Ruhror...
Akte.X.S02.German.DTS.DL.108...
How.I.Met.Your.Mother.S02.Ge...
Akte.X.S01.German.DTS.DL.108...
Den.Himmel.gibts.echt.DL.108...
Vikings.S02.German.DL.1080p....
Be.Kind.Rewind.Abgedreht.200...

Filme
Die.Schoene.und.die.Bestie.1...
Babylon.Berlin.S01.D01-2.GER...
Suspiria.1977.German.DL.DTSD...
Sweeney.Todd.The.Demon.Barbe...
Eine.kleine.Geschichte.ueber...
Eine.Karte.der.Klaenge.von.T...
Eine.Hochzeit.und.andere.Hin...
Wolfsnaechte.2018.German.DL....
Der.Augenzeuge.1981.German.D...
Ein.Brief.an.drei.Frauen.194...
Living.in.Oblivion.20th.Anni...
Antiviral.2012.German.DTS.DL...
Eine.Frau.unter.Einfluss.197...
Eine.fuer.4.Unterwegs.in.Sac...
Jessica.und.das.Rentier.1989...
Eine.Gefaehrliche.Affaere.19...
Blackout.Ein.Detektiv.sucht....
Der.Schwimmer.1968.German.AC...
The.Blacklist.S05D01-4.MULTi...
Undisputed.Sieg.ohne.Ruhm.20...
Requiem.for.a.Dream.2000.Ger...
The.Big.Lebowski.1998.MULTi....
Eine.Faust.geht.nach.Westen....
Eine.Frage.der.Liebe.2003.Ge...

 
 
Passengers.2016.German.AC3.DL.1080p.BluRay.x265-FuN

Jahr: 2016
Genre: Abenteuer | Drama | Romanze
Sprache: Deutsch AC3 | Englisch AC3
Laufzeit: 1h 56mn
Bitrate: 2 477 Kbps
Format: MKV
Größe: 2.01 GiB
Release:

Beschreibung:

Während das Raumschiff Avalon auf einer 120 Jahre dauernden Reise durch das All unterwegs zu einem fernen Planeten ist, der den 5259 Menschen an Bord ein neues Zuhause bieten soll, kommt es in einer der Schlafkammern zu einer Fehlfunktion, die den Mechaniker Jim Preston (C. Pratt) 90 Jahre zu früh weckt. Ganz auf sich gestellt, beginnt er das Schiff zu erkunden und die Freuden der voll automatisierten Luxusausstattung des Kreuzers zu genießen. Doch das Fehlen menschlichen Kontakts, den auch der Roboter Arthur (M. Sheen) nicht zu kompensieren vermag, zehrt an Jims Verfassung und er beschließt, ein Jahr nach seinem eigenen Erwachen, einen weiteren Menschen zu wecken. Seine Wahl fällt auf die Autorin Aurora (J. Lawrence), mit der er von nun an gemeinsam die weitere Reise verbringt, wobei sich die beiden auch langsam aber sicher ineinander verlieben - bis es zu einem massiven technischen Versagen auf der Avalon kommt und das Schicksal von 5257 Menschen ganz allein in ihren Händen liegt...




Format                                   : Matroska
Format version                           : Version 4 / Version 2
File size                                : 2.01 GiB
Duration                                 : 1h 56mn
Overall bit rate                         : 2 477 Kbps
Movie name                               : Passengers.2016.German.DL.1080p.BluRay.AVC-AVC4D
Encoded date                             : UTC 2018-10-14 06:57:51
Writing application                      : mkvmerge v20.0.0 ('I Am The Sun') 64-bit
Writing library                          : libebml v1.3.5 + libmatroska v1.4.8
DURATION                                 : 01:45:13.349000000
NUMBER_OF_FRAMES                         : 22
NUMBER_OF_BYTES                          : 496
_STATISTICS_WRITING_APP                  : mkvmerge v20.0.0 ('I Am The Sun') 64-bit
_STATISTICS_WRITING_DATE_UTC             : 2018-10-14 06:57:51
_STATISTICS_TAGS                         : BPS DURATION NUMBER_OF_FRAMES NUMBER_OF_BYTES

Video
ID                                       : 1
Format                                   : HEVC
Format/Info                              : High Efficiency Video Coding
Format profile                           : Main@L4.0
Codec ID                                 : V_MPEGH/ISO/HEVC
Duration                                 : 1h 56mn
Bit rate                                 : 1 659 Kbps
Width                                    : 1 920 pixels
Height                                   : 804 pixels
Display aspect ratio                     : 2.40:1
Frame rate mode                          : Constant
Frame rate                               : 23.976 fps
Color space                              : YUV
Chroma subsampling                       : 4:2:0
Bit depth                                : 8 bits
Bits/(Pixel*Frame)                       : 0.045
Stream size                              : 1.35 GiB (67%)
Writing library                          : x265 2.6:[Windows][GCC 7.3.0][64 bit] 8bit+10bit+12bit
Encoding settings                        : cpuid=1173503 / frame-threads=3 / numa-pools=8 / wpp / no-pmode / no-pme / no-psnr / no-ssim / log-level=2 / input-csp=1 / input-res=1920x804 / interlace=0 / total-frames=0 / level-idc=0 / high-tier=1 / uhd-bd=0 / ref=3 / no-allow-non-conformance / no-repeat-headers / annexb / no-aud / no-hrd / info / hash=0 / no-temporal-layers / open-gop / min-keyint=24 / keyint=240 / bframes=4 / b-adapt=0 / b-pyramid / bframe-bias=0 / rc-lookahead=15 / lookahead-slices=5 / scenecut=40 / no-intra-refresh / ctu=64 / min-cu-size=8 / no-rect / no-amp / max-tu-size=32 / tu-inter-depth=1 / tu-intra-depth=1 / limit-tu=0 / rdoq-level=0 / dynamic-rd=0.00 / no-ssim-rd / signhide / no-tskip / nr-intra=0 / nr-inter=0 / no-constrained-intra / no-strong-intra-smoothing / max-merge=2 / limit-refs=3 / no-limit-modes / me=1 / subme=2 / merange=57 / temporal-mvp / weightp / no-weightb / no-analyze-src-pics / deblock=0:0 / no-sao / no-sao-non-deblock / rd=2 / no-early-skip / rskip / fast-intra / no-tskip-fast / no-cu-lossless / no-b-intra / no-splitrd-skip / rdpenalty=0 / psy-rd=2.00 / psy-rdoq=0.00 / no-rd-refine / analysis-reuse-mode=0 / no-lossless / cbqpoffs=0 / crqpoffs=0 / rc=crf / crf=20.0 / qcomp=0.60 / qpstep=4 / stats-write=0 / stats-read=0 / ipratio=1.40 / pbratio=1.30 / aq-mode=1 / aq-strength=1.00 / cutree / zone-count=0 / no-strict-cbr / qg-size=32 / no-rc-grain / qpmax=69 / qpmin=0 / no-const-vbv / sar=1 / overscan=0 / videoformat=5 / range=0 / colorprim=1 / transfer=1 / colormatrix=1 / chromaloc=0 / display-window=0 / max-cll=0,0 / min-luma=0 / max-luma=255 / log2-max-poc-lsb=8 / vui-timing-info / vui-hrd-info / slices=1 / no-opt-qp-pps / no-opt-ref-list-length-pps / no-multi-pass-opt-rps / scenecut-bias=0.05 / no-opt-cu-delta-qp / no-aq-motion / no-hdr / no-hdr-opt / no-dhdr10-opt / analysis-reuse-level=5 / scale-factor=0 / refine-intra=0 / refine-inter=0 / refine-mv=0 / no-limit-sao / ctu-info=0 / no-lowpass-dct / refine-mv-type=0 / copy-pic=1
Default                                  : Yes
Forced                                   : No
DURATION                                 : 01:56:10.964000000
NUMBER_OF_FRAMES                         : 167136
NUMBER_OF_BYTES                          : 1478278643
_STATISTICS_WRITING_APP                  : mkvmerge v20.0.0 ('I Am The Sun') 64-bit
_STATISTICS_WRITING_DATE_UTC             : 2018-10-14 06:57:51
_STATISTICS_TAGS                         : BPS DURATION NUMBER_OF_FRAMES NUMBER_OF_BYTES

Audio #1
ID                                       : 2
Format                                   : AC-3
Format/Info                              : Audio Coding 3
Mode extension                           : CM (complete main)
Format settings, Endianness              : Big
Codec ID                                 : A_AC3
Duration                                 : 1h 56mn
Bit rate mode                            : Constant
Bit rate                                 : 384 Kbps
Channel(s)                               : 6 channels
Channel positions                        : Front: L C R, Side: L R, LFE
Sampling rate                            : 48.0 KHz
Bit depth                                : 16 bits
Compression mode                         : Lossy
Stream size                              : 319 MiB (16%)
Title                                    : Surround
Language                                 : German
Default                                  : Yes
Forced                                   : No
DURATION                                 : 01:56:10.944000000
NUMBER_OF_FRAMES                         : 217842
NUMBER_OF_BYTES                          : 334605312
_STATISTICS_WRITING_APP                  : mkvmerge v20.0.0 ('I Am The Sun') 64-bit
_STATISTICS_WRITING_DATE_UTC             : 2018-10-14 06:57:51
_STATISTICS_TAGS                         : BPS DURATION NUMBER_OF_FRAMES NUMBER_OF_BYTES

Audio #2
ID                                       : 3
Format                                   : AC-3
Format/Info                              : Audio Coding 3
Mode extension                           : CM (complete main)
Format settings, Endianness              : Big
Codec ID                                 : A_AC3
Duration                                 : 1h 56mn
Bit rate mode                            : Constant
Bit rate                                 : 384 Kbps
Channel(s)                               : 6 channels
Channel positions                        : Front: L C R, Side: L R, LFE
Sampling rate                            : 48.0 KHz
Bit depth                                : 16 bits
Compression mode                         : Lossy
Stream size                              : 319 MiB (16%)
Title                                    : Surround
Language                                 : English
Default                                  : No
Forced                                   : No
DURATION                                 : 01:56:10.944000000
NUMBER_OF_FRAMES                         : 217842
NUMBER_OF_BYTES                          : 334605312
_STATISTICS_WRITING_APP                  : mkvmerge v20.0.0 ('I Am The Sun') 64-bit
_STATISTICS_WRITING_DATE_UTC             : 2018-10-14 06:57:51
_STATISTICS_TAGS                         : BPS DURATION NUMBER_OF_FRAMES NUMBER_OF_BYTES



Download:
Share Online Share OnlineShare OnlineShare Online
 

Kommentare