DNS SERVER AENDERNum der staatlichen Zensur zu umgehen. Sollten wir von eurem Provider geseprrt werden, nutzt den TOR BROWSER oder ändert euren DNS SERVER.

Filmwünsche können bei uns im Forum abgegeben werden

Wir Speichern Nicht




 
 
 
Top Releases
Virunga.2014.German.DL.Doku....
Virunga.2014.German.DL.Doku....
Ungehorsam.2017.German.AC3.D...
Solange.ich.atme.2017.German...
Roman.J.Israel.Esq.Die.Wahrh...
Early.Man.Steinzeit.bereit.2...
Early.Man.Steinzeit.Bereit.2...
A.Beautiful.Day.2017.German....
Early.Man.Steinzeit.bereit.2...
Early.Man.Steinzeit.bereit.2...

Cinedubs
Solo.A.Star.Wars.Story.2018....
Loving.Pablo.2017.German.AC3...
Jurassic.World.2.Das.gefalle...
Ant-Man.and.the.Wasp.TS.LD.G...
I.Feel.Pretty.2018.German.AC...
I.Feel.Pretty.2018.German.AC...
Skyscraper.2018.German.AC3LD...
Jurassic.World.2.Das.gefalle...
Jurassic.World.2.Das.gefalle...
Jurassic.World.2.Das.gefalle...

Neuerscheinungen 2017-18
Heilstaetten.2018.German.AC3...
Heilstaetten.2018.German.AC3...
Early.Man.Steinzeit.bereit.2...
You.Get.Me.2017.German.DL.72...
You.Get.Me.2017.German.DL.10...
Alien.Siege.Angriffsziel.Erd...
Alien.Siege.Angriffsziel.Erd...
Vielmachglas.German.AC3.720p...
Vielmachglas.German.AC3.1080...
Alien.Siege.2018.COMPLETE.BL...

XXX
WickedPictures.Love.Junkies....
AllGirlMassage.18.09.03.Soph...
WildOnCam.18.08.27.Eliza.Iba...
WickedPictures.Love.Junkies....
WankItNow.18.08.10.Amber.Jay...
WankItNow.18.08.08.Ashley.Ja...
WankItNow.18.08.10.Jasmine.L...
WickedPictures.Axel.Brauns.B...
AbbyWinters.18.09.04.Daniela...
Yanks.18.08.26.Amber.Chase.A...
WhippedAss.18.07.05.Bella.Ro...
WildOnCam.18.07.06.Elsa.Jean...
WankItNow.18.08.08.Roxy.R.Do...
Yonitale.18.07.06.Nedda.Y.Do...
Watch4Beauty.18.07.05.Ariela...
WildOnCam.18.07.05.Jay.Taylo...
WebYoung.18.07.06.Lyra.Law.A...
Vixen.18.08.27.Athena.Palomi...
ATKHairy.18.09.03.Andy.Moon....
WankItNow.18.08.09.Beth.Wank...

3D
Avengers.Infinity.War.3D.201...
Avengers.Infinity.War.3D.201...
Rampage.Big.Meets.Bigger.3D....
Rampage.Big.Meets.Bigger.3D....
Rampage.Big.Meets.Bigger.3D....
Winter.Games.3D.2013.DUAL.CO...
Tomb.Raider.3D.2018.German.7...
Rampage.Big.Meets.Bigger.3D....
Rampage.Big.Meets.Bigger.3D....
Tomb.Raider.3D.2018.MULTi.CO...
Pacific.Rim.Uprising.3D.2018...
Ready.Player.One.3D.2018.Ger...
Rampage.-.Big.Meets.Bigger.2...
Ready.Player.One.2018.3D.HOU...
Ready.Player.One.2018.3D.HSB...

Old_Stuff
Den.Himmel.gibts.echt.DL.108...
Vikings.S02.German.DL.1080p....
Be.Kind.Rewind.Abgedreht.200...
Be.Kind.Rewind.Abgedreht.200...
Dracula.The.Dark.Lord.2012.G...
21.2008.German.DL.1080p.BluR...
Achtung.fertig.WK.Swissgerma...
The.Ouija.Exorcism.2015.MULT...
Meine.liebe.Rabenmutter.germ...
Da.Vincis.Demons.S01.Complet...
Eragon.Das.Vermaechtnis.der....
Adele.und.das.Geheimnis.des....
Die.fabelhafte.Welt.der.Amel...
Haus.des.Geldes.S01.German.M...
How.I.Met.Your.Mother.S01.Ge...

Filme
The.Last.Ship.S05.GERMAN.DUB...
Crazy.Ex.Girlfriend.S03.Germ...
Once.Upon.a.Time.S07.German....
Once.Upon.a.Time.S07.German....
Fear.The.Walking.Dead.S04.Ge...
Fear.The.Walking.Dead.S04.Ge...
Bad.Boys.II.2003.German.DL.2...
Crossfire.2008.German.DTS.10...
Crossfire.2016.German.DL.108...
Crows.Zero.2.The.Crows.are.b...
Headshot.2016.German.1080p.B...
Croupier.1998.German.AC3D.DL...
Crimson.Peak.2015.German.DTS...
Cross.Wars.2017.German.DL.10...
Der.letzte.Zug.-.Experiment....
Paris.Die.goldenen.20er.GERM...
52.Pick.Up.1986.German.AC3D....
Macbeth.1971.German.AC3D.DL....
Men.at.Work.German.1990.Germ...
El.Ardor.Der.Krieger.aus.dem...
Palmyra.Aus.Asche.auferstand...
The.Game.of.Love.1995.German...
Madhouse.-.Party.des.Schreck...
Die.Rettung.der.Meisterwerke...

 
 
Crazy.Ex.Girlfriend.S03.German.DD20.Dubbed.DL.720p.AmazonHD.h264-GDR

Jahr: 2017
Genre: Komödie | Musical
Sprache: Deutsch AC3 | Englisch AC3
Laufzeit: 40min je Folge
Bitrate: 3100 Kbps
Format: MKV
Größe: 1,1 GB je Folge
Release:

Beschreibung:

In der Musical-Dramedy „Crazy Ex-Girlfriend“ ist Rebecca Bunch eine erfolgreiche, ambitionierte und etwas verrückte Frau, die aus einer Laune heraus einfach alles aufgibt - ihre Teilhaberschaft in einer erfolgreichen Anwaltskanzlei, ihr teures Apartment in Manhattan - um Liebe und Glück in West Covina, Kalifornien, zu finden.

 

enthaltene Folgen:

Crazy.Ex.Girlfriend.S03E01.German.DD20.Dubbed.DL.720p.AmazonHD.h264-GDR

Crazy.Ex.Girlfriend.S03E02.German.DD20.Dubbed.DL.720p.AmazonHD.h264-GDR

Crazy.Ex.Girlfriend.S03E03.Josh.ist.ein.Luegner.German.DD20.Dubbed.DL.720p.AmazonHD.h264-GDR

Crazy.Ex.Girlfriend.S03E04.Joshs.Ex.ist.verrueckt.German.DD20.Dubbed.DL.720p.AmazonHD.h264-GDR

Crazy.Ex.Girlfriend.S03E05.I.Never.Want.to.See.Josh.Again.German.DD20.Dubbed.DL.720p.AmazonHD.h264-GDR

Crazy.Ex.Girlfriend.S03E06.Josh.ist.nicht.wichtig.German.DD20.Dubbed.DL.720p.AmazonHD.h264-GDR



General
Complete name                            : Crazy.Ex.Girlfriend.S03E01.German.DD20.Dubbed.DL.720p.AmazonHD.h264-GDR.mkv
Format                                   : Matroska
Format version                           : Version 4 / Version 2
File size                                : 1.08 GiB
Duration                                 : 40mn 38s
Overall bit rate mode                    : Variable
Overall bit rate                         : 3 815 Kbps
Encoded date                             : UTC 2018-08-18 20:13:16
Writing application                      : mkvmerge v23.0.0 ('The Bride Said No') 64-bit
Writing library                          : libebml v1.3.6 + libmatroska v1.4.9
DURATION                                 : 00:40:38.816000000
NUMBER_OF_FRAMES                         : 76213
NUMBER_OF_BYTES                          : 117063168
_STATISTICS_WRITING_APP                  : mkvmerge v23.0.0 ('The Bride Said No') 64-bit
_STATISTICS_WRITING_DATE_UTC             : 2018-08-18 20:13:16
_STATISTICS_TAGS                         : BPS DURATION NUMBER_OF_FRAMES NUMBER_OF_BYTES

Video
ID                                       : 1
Format                                   : AVC
Format/Info                              : Advanced Video Codec
Format profile                           : High@L3.1
Format settings, CABAC                   : Yes
Format settings, ReFrames                : 5 frames
Codec ID                                 : V_MPEG4/ISO/AVC
Duration                                 : 40mn 38s
Bit rate mode                            : Variable
Bit rate                                 : 3 163 Kbps
Maximum bit rate                         : 4 500 Kbps
Width                                    : 1 280 pixels
Height                                   : 720 pixels
Display aspect ratio                     : 16:9
Frame rate mode                          : Constant
Frame rate                               : 25.000 fps
Color space                              : YUV
Chroma subsampling                       : 4:2:0
Bit depth                                : 8 bits
Scan type                                : Progressive
Bits/(Pixel*Frame)                       : 0.137
Stream size                              : 919 MiB (83%)
Language                                 : German
Default                                  : Yes
Forced                                   : No
Color primaries                          : BT.709
Transfer characteristics                 : BT.709
Matrix coefficients                      : BT.709

Audio #1
ID                                       : 2
Format                                   : AC-3
Format/Info                              : Audio Coding 3
Mode extension                           : CM (complete main)
Format settings, Endianness              : Big
Codec ID                                 : A_AC3
Duration                                 : 40mn 38s
Bit rate mode                            : Constant
Bit rate                                 : 192 Kbps
Channel(s)                               : 2 channels
Channel positions                        : Front: L R
Sampling rate                            : 48.0 KHz
Bit depth                                : 16 bits
Compression mode                         : Lossy
Stream size                              : 55.8 MiB (5%)
Language                                 : German
Default                                  : Yes
Forced                                   : No

Audio #2
ID                                       : 3
Format                                   : AC-3
Format/Info                              : Audio Coding 3
Mode extension                           : CM (complete main)
Format settings, Endianness              : Big
Codec ID                                 : A_AC3
Duration                                 : 40mn 38s
Bit rate mode                            : Constant
Bit rate                                 : 384 Kbps
Channel(s)                               : 6 channels
Channel positions                        : Front: L C R, Side: L R, LFE
Sampling rate                            : 48.0 KHz
Bit depth                                : 16 bits
Compression mode                         : Lossy
Stream size                              : 112 MiB (10%)
Language                                 : English
Default                                  : No
Forced                                   : No



Download:
Share-Online.biz Share-Online.bizShare-Online.bizShare-Online.biz | Rapidgator.net Rapidgator.netRapidgator.netRapidgator.net
 

Kommentare